鐵之狂傲

 取回密碼
 註冊
搜尋

【教學主題】 將喜歡的音樂合併在一起

[複製連結] 檢視: 2780|回覆: 1

發表於 17-10-15 01:33:57 |顯示全部樓層 大字 中字 小字 正體化 简体化
本文章最後由 無我皇 於 17-10-15 01:53 編輯

將喜歡的音樂合併在一起
vlcsnap-2017-10-14-22h12m15s484.png

https://youtu.be/4m_oLGwhKp4
(1)
搜尋"無損音樂製作"
找到"5種無損音樂和mp3音樂製作工具程式大全"
內部包含許多音樂製作工具,
由於CDmage使用cue檔只能掛載wav原音檔,
所以要把無損音樂檔還原成wav原音檔,

(2)
用記事本寫一個cue檔把喜歡的樂曲wav原音檔排列雜湊成專輯,
例如
FILE "AG-018 track 03.wav" WAVE
  TRACK 01 AUDIO
    INDEX 01 00:00:00
FILE "AG-018 track 10.wav" WAVE
  TRACK 02 AUDIO
    INDEX 01 00:00:00
FILE "LACA-9021 track 01.wav" WAVE
  TRACK 03 AUDIO
    INDEX 01 00:00:00
FILE "LACA-9021 track 05.wav" WAVE
  TRACK 04 AUDIO
    INDEX 01 00:00:00

CDmage來開啟cue檔,必須要wav原音檔是沒有任何程式開啟,
CDmage才能成功掛載wav原音檔,然後CDmage再另存新檔,
這樣就可以儲存成專輯鏡像,一般是.bin檔,
掛載專輯鏡像檔的cue檔會在另存新檔的時候會自動做成

(3)
用記事本編輯掛載專輯鏡像檔的cue檔,怕出錯請備份cue檔,
把要合成連續的音樂軌道合併,
原本是
FILE "TOKIflacgFCD.bin" BINARY
  TRACK 01 AUDIO
    INDEX 01 00:00:00
  TRACK 02 AUDIO
    INDEX 01 04:36:72
  TRACK 03 AUDIO
    INDEX 01 09:57:65
  TRACK 04 AUDIO
    INDEX 01 15:22:12

改成
FILE "TOKIflacgFCD.bin" BINARY
  TRACK 01 AUDIO
    INDEX 01 00:00:00
  TRACK 02 AUDIO
    INDEX 01 09:57:65
  TRACK 03 AUDIO
    INDEX 01 15:22:12

把原本第三軌的時間覆蓋掉第二軌的時間,
再把第四軌改成第三軌,
這樣一來第一軌和第二軌就可以合併在一起了

寫好後用CDmage來開啟cue
CDmage1.png

(4)
成功後用CDmage開啟cue檔,解壓專輯鏡像檔中的音軌,
就能得到合併在一起的樂曲了.
對著音軌按滑鼠右鍵選 Extract Tracks
Audio as 選擇 Wave file
Extract tracks to 填入要解壓縮的地方
好了後按 Extract 就可以從專輯鏡像輸出檔案
好了後就能繼續製作成其他無損音樂檔
= = = = = = = = = = = = = = = = = = = = = = = = = = = = = =
(1)
Search for "無損音樂製作"
Find "5種無損音樂和mp3音樂製作工具程式大全"
Inside contains many music production tools,
Because CDmage use cue file can only mount wav original sound file,
So to restore the loss of music files into wav original sound file,

(2)
With a notebook to write a cue file to like the music wav the
original sound arrangement arranged into the album,
E.g
FILE "AG-018 track 03.wav" WAVE
  TRACK 01 AUDIO
    INDEX 01 00:00:00
FILE "AG-018 track 10.wav" WAVE
  TRACK 02 AUDIO
    INDEX 01 00:00:00
FILE "LACA-9021 track 01.wav" WAVE
  TRACK 03 AUDIO
    INDEX 01 00:00:00
FILE "LACA-9021 track 05.wav" WAVE
  TRACK 04 AUDIO
    INDEX 01 00:00:00

With CDmage to open the cue file, you must wav original file is no program to open,
CDmage to successfully mount wav original sound files,
and then CDmage and then save the new file,
So you can save as a mirror image, usually. Bin file,
The cue file for the album image will be automatically created when the new file is saved

(3)
With the notebook to edit the album image file cue file,
afraid of the error Please backup cue file,
To merge into a continuous music track,
Originally
FILE "TOKIflacgFCD.bin" BINARY
  TRACK 01 AUDIO
    INDEX 01 00:00:00
  TRACK 02 AUDIO
    INDEX 01 04:36:72
  TRACK 03 AUDIO
    INDEX 01 09:57:65
  TRACK 04 AUDIO
    INDEX 01 15:22:12

Changed to
FILE "TOKIflacgFCD.bin" BINARY
  TRACK 01 AUDIO
    INDEX 01 00:00:00
  TRACK 02 AUDIO
    INDEX 01 09:57:65
  TRACK 03 AUDIO
    INDEX 01 15:22:12

The original third track of the time to cover the second track of the time,
And then the fourth track into the third track,
So that the first track and the second track can be combined together

Write with CDmage to open the cue file

(4)
After the success of CDmage open cue file, decompression album image in the track,
You can get the music together.
Right click on the track to select Extract Tracks
Audio as Select Wave file
Extract tracks to fill in where you want to decompress
After the extract, you can extract the file from the album image
Well, you can continue to make other lossless music files

= = = = = = = = = = = = = = = = = = = = = = = = = = = = = =
In order unnecessary misunderstanding:
I do not know English
English is translated using google translate
If you need to translate,
please use Chinese to translate more accurate.
https://translate.google.com/
為了不必要的誤會:小皇不懂英文,
英文都是用google translate翻譯的,
若需要翻譯請用中文來翻譯比較準確.
= = = = = = = = = = = = = = = = = = = = = = = = = = = = = =
TOKIapegF.tar.gz (361 Bytes, 下載次數: 0)
利用CDmage把wav檔案將自己喜歡的歌曲雜湊成CD
http://www.gamez.com.tw/thread-604107-1-1.html

回覆 使用道具 檢舉

全世界最先進的跳動筆
2#
無效的樓層,該文章已經被刪除
你需要登入後才可以回覆 登入 | 註冊

存檔|手機版|聯絡我們|新聞提供|鐵之狂傲

GMT+8, 19-11-23 08:02 , Processed in 3.079545 second(s), 19 queries .

回頂部