鐵之狂傲

 取回密碼
 註冊
搜尋

發表於 16-11-28 21:14:40 |顯示全部樓層 大字 中字 小字 正體化 简体化
本文章最後由 無我皇 於 17-1-16 18:11 編輯

利用CDmage把wav檔案將自己喜歡的歌曲雜湊成CD
gFCDwork.png

音樂檔案必須是要wav檔案,
CDmage可以將燒錄檔轉成.wav,且是一曲一檔,
常常掛載燒錄檔來聽音樂的話,

可以寫一個.bat批次檔
最下方要多空一行
201310067.bat
- - - - - - - - - - - - - - - - - - - - - - - - - - - - - - - -
start CDmage.exe 201310067.cue

= = = = = = = = = = = = = = = = = = = = = = = = = = = = = =

掛載bin燒錄檔要用cue檔來進行
cue檔案掛載bin的寫法
201310067.cue
- - - - - - - - - - - - - - - - - - - - - - - - - - - - - - - -
FILE "201310067.bin" BINARY
  TRACK 01 AUDIO
    INDEX 01 00:00:00
  TRACK 02 AUDIO
    INDEX 01 04:24:29
  TRACK 03 AUDIO
    INDEX 01 09:12:55
  TRACK 04 AUDIO
    INDEX 01 12:58:32

= = = = = = = = = = = = = = = = = = = = = = = = = = = = = =

用.bat來用CDmage檔案掛載nrg的寫法
201310067.bat
- - - - - - - - - - - - - - - - - - - - - - - - - - - - - - - -
start CDmage.exe 201310067.nrg

= = = = = = = = = = = = = = = = = = = = = = = = = = = = = =

而雜湊wav檔案的方法
cue檔案的寫法是
201310067.cue
- - - - - - - - - - - - - - - - - - - - - - - - - - - - - - - -
FILE "solty_op track-01.wav" WAVE
  TRACK 01 AUDIO
    INDEX 01 00:00:00
FILE "solty_op track-02.wav" WAVE
  TRACK 02 AUDIO
    INDEX 01 00:00:00
FILE "hitomino track-2.wav" WAVE
  TRACK 03 AUDIO
    INDEX 01 00:00:00
FILE "Kiseki no Umi.wav" WAVE
  TRACK 04 AUDIO
    INDEX 01 00:00:00

= = = = = = = = = = = = = = = = = = = = = = = = = = = = = =

CDmage不能掛m3u檔案,有些播放軟體可以播m3u檔案
m3u檔案的寫法
201310067.m3u
- - - - - - - - - - - - - - - - - - - - - - - - - - - - - - - -
#M3U
solty_op track-01.wav
solty_op track-02.wav
hitomino track-2.wav
Kiseki no Umi.wav

= = = = = = = = = = = = = = = = = = = = = = = = = = = = = =

用CDmage的存檔就可以製成燒錄檔
而製成的燒錄檔可以存在隨身碟
或用燒錄軟體燒成CD
= = = = = = = = = = = = = = = = = = = = = = = = = = = = = =
= = = = = = = = = = = = = = = = = = = = = = = = = = = = = =
Use CDmage the wav files will be their favorite songs hash into CD

The music file must be a wav file,
CDmage can burn files into. Wav, and is a file,
Often mount burning file to listen to music,

You can write a. Bat batch file
Bottom to be long and short line
201310067.bat
- - - - - - - - - - - - - - - - - - - - - - - - - - - - - - - -
Start CDmage.exe 201310067.cue

= = = = = = = = = = = = = = = = = = = = = = = = = = = = = =

Mount bin burn file to use cue file to carry out
Cue file mount bin the wording
201310067.cue
- - - - - - - - - - - - - - - - - - - - - - - - - - - - - - - -
FILE "201310067.bin" BINARY
  TRACK 01 AUDIO
    INDEX 01 00:00:00
  TRACK 02 AUDIO
    INDEX 01 04:24:29
  TRACK 03 AUDIO
    INDEX 01 09:12:55
  TRACK 04 AUDIO
    INDEX 01 12:58:32

= = = = = = = = = = = = = = = = = = = = = = = = = = = = = =

Use .bat to mount nrg with the CDmage file
201310067.bat
- - - - - - - - - - - - - - - - - - - - - - - - - - - - - - - -
Start CDmage.exe 201310067.nrg

= = = = = = = = = = = = = = = = = = = = = = = = = = = = = =

While the hash wav file method
The cue file is written
201310067.cue
- - - - - - - - - - - - - - - - - - - - - - - - - - - - - - - -
FILE "solty_op track-01.wav" WAVE
  TRACK 01 AUDIO
    INDEX 01 00:00:00
FILE "solty_op track-02.wav" WAVE
  TRACK 02 AUDIO
    INDEX 01 00:00:00
FILE "hitomino track-2.wav" WAVE
  TRACK 03 AUDIO
    INDEX 01 00:00:00
FILE "Kiseki no Umi.wav" WAVE
  TRACK 04 AUDIO
    INDEX 01 00:00:00

= = = = = = = = = = = = = = = = = = = = = = = = = = = = = =

CDmage can not hang m3u files,
some broadcast software can broadcast m3u files
M3u file written
201310067.m3u
- - - - - - - - - - - - - - - - - - - - - - - - - - - - - - - -
# M3U
Solty_op track-01.wav
Solty_op track-02.wav
Hitomino track-2.wav
Kiseki no Umi.wav

= = = = = = = = = = = = = = = = = = = = = = = = = = = = = =
最近編輯了一個,音樂檔放置於WAV資料夾中,
成功用CDmage開啟
Recently edited a music file placed in the WAV folder,
Success with CDmage open
zzz.cue
- - - - - - - - - - - - - - - - - - - - - - - - - - - - - - - -
FILE "WAV/White Destiny (OP曲)[新白雪姬傳說gF-A8-1549]-track01-201010225made01-Nero9-CDmage-UIC.wav" WAVE
  TRACK 01 AUDIO
    INDEX 01 00:00:00
FILE "WAV/White Destiny (OP曲)[新白雪姬傳說gF-A8-1549]-track01-201010262made01-EAC-UIC.wav" WAVE
  TRACK 02 AUDIO
    INDEX 01 00:00:00
FILE "WAV/White Destiny (TV-size A-type)[新白雪姬傳說gF-A8-1549]-track23-201010225made02-Nero9-CDmage-UIC.wav" WAVE
  TRACK 03 AUDIO
    INDEX 01 00:00:00
FILE "WAV/White Destiny (TV-size A-type)[新白雪姬傳說gF-A8-1549]-track23-201010262made02-EAC-UIC.wav" WAVE
  TRACK 04 AUDIO
    INDEX 01 00:00:00
FILE "WAV/White Destiny (TV-size B-type)[新白雪姬傳說gF-A8-1549]-track24-201010225made03-Nero9-CDmage-UIC.wav" WAVE
  TRACK 05 AUDIO
    INDEX 01 00:00:00
FILE "WAV/White Destiny (TV-size B-type)[新白雪姬傳說gF-A8-1549]-track24-201010262made03-EAC-UIC.wav" WAVE
  TRACK 06 AUDIO
    INDEX 01 00:00:00

= = = = = = = = = = = = = = = = = = = = = = = = = = = = = =
音樂鏡像檔和音樂檔雜湊的寫法
Music image files and music files are written together

aaa.cue
- - - - - - - - - - - - - - - - - - - - - - - - - - - - - - - -
FILE "ARCJ70.bin" BINARY
  TRACK 01 AUDIO
    INDEX 01 00:00:00
  TRACK 02 AUDIO
    INDEX 01 04:00:55
FILE "WAV/White Destiny (OP曲)[新白雪姬傳說gF-A8-1549]-track01-201010225made01-Nero9-CDmage-UIC.wav" WAVE
  TRACK 03 AUDIO
    INDEX 01 00:00:00
FILE "WAV/White Destiny (OP曲)[新白雪姬傳說gF-A8-1549]-track01-201010262made01-EAC-UIC.wav" WAVE
  TRACK 04 AUDIO
    INDEX 01 00:00:00

= = = = = = = = = = = = = = = = = = = = = = = = = = = = = =
要注意的是檔案有沒有在使用中,
若是在使用中用
CDmage來掛載就會失敗,
要把所有用到檔案的程式都關閉掉
It should be noted that the file is not in use,
If used in the use of CDmage to mount will fail,
To use all the programs are closed off the file
= = = = = = = = = = = = = = = = = = = = = = = = = = = = = =
CDmage with the archive can be made into burning files
The burned file can be made into flash disk
Or burning software CD burning software
= = = = = = = = = = = = = = = = = = = = = = = = = = = = = =
Cue file to force the split soundtrack ringtones production method
cue檔強制音軌分割手機鈴聲製作法
http://www.gamez.com.tw/thread-592787-1-1.html

Research on Manually Editing Music Track
手動編輯音樂分軌檔cue之研究
http://www.gamez.com.tw/thread-572902-1-1.html

Super - research technique of track
cue分軌檔超級研究技術
http://www.gamez.com.tw/thread-573525-1-2.html


5 lossless music and mp3 music production tools Daquan
5種無損音樂和mp3音樂製作工具程式大全
http://www.gamez.com.tw/thread-565406-1-1.html
= = = = = = = = = = = = = = = = = = = = = = = = = = = = = =
In order unnecessary misunderstanding:
I do not know English
English is translated using google translate
If you need to translate,
please use Chinese to translate more accurate.
https://translate.google.com/
為了不必要的誤會:小皇不懂英文,
英文都是用google translate翻譯的,
若需要翻譯請用中文來翻譯比較準確.
= = = = = = = = = = = = = = = = = = = = = = = = = = = = = =

回覆 使用道具 檢舉

全世界最先進的跳動筆

  汐/止/找/女/人Line:jkqw新/北/外/約Wechat:tw5880台/中/鐘/點//情/人/外/送/
汐/止/找/女/人Line:jkqw新/北/外/約Wechat:tw5880台/中/鐘/點//情/人/外/送/
汐/止/找/女/人Line:jkqw新/北/外/約Wechat:tw5880台/中/鐘/點//情/人/外/送/

汐/止/找/女/人Line:jkqw新/北/外/約Wechat:tw5880台/中/鐘/點//情/人/外/送/
汐/止/找/女/人Line:jkqw新/北/外/約Wechat:tw5880台/中/鐘/點//情/人/外/送/
汐/止/找/女/人Line:jkqw新/北/外/約Wechat:tw5880台/中/鐘/點//情/人/外/送/

汐/止/找/女/人Line:jkqw新/北/外/約Wechat:tw5880台/中/鐘/點//情/人/外/送/
汐/止/找/女/人Line:jkqw新/北/外/約Wechat:tw5880台/中/鐘/點//情/人/外/送/
汐/止/找/女/人Line:jkqw新/北/外/約Wechat:tw5880台/中/鐘/點//情/人/外/送/

汐/止/找/女/人Line:jkqw新/北/外/約Wechat:tw5880台/中/鐘/點//情/人/外/送/
汐/止/找/女/人Line:jkqw新/北/外/約Wechat:tw5880台/中/鐘/點//情/人/外/送/
汐/止/找/女/人Line:jkqw新/北/外/約Wechat:tw5880台/中/鐘/點//情/人/外/送/

汐/止/找/女/人Line:jkqw新/北/外/約Wechat:tw5880台/中/鐘/點//情/人/外/送/
汐/止/找/女/人Line:jkqw新/北/外/約Wechat:tw5880台/中/鐘/點//情/人/外/送/
汐/止/找/女/人Line:jkqw新/北/外/約Wechat:tw5880台/中/鐘/點//情/人/外/送/

汐/止/找/女/人Line:jkqw新/北/外/約Wechat:tw5880台/中/鐘/點//情/人/外/送/
汐/止/找/女/人Line:jkqw新/北/外/約Wechat:tw5880台/中/鐘/點//情/人/外/送/
汐/止/找/女/人Line:jkqw新/北/外/約Wechat:tw5880台/中/鐘/點//情/人/外/送/

汐/止/找/女/人Line:jkqw新/北/外/約Wechat:tw5880台/中/鐘/點//情/人/外/送/
汐/止/找/女/人Line:jkqw新/北/外/約Wechat:tw5880台/中/鐘/點//情/人/外/送/
汐/止/找/女/人Line:jkqw新/北/外/約Wechat:tw5880台/中/鐘/點//情/人/外/送/

汐/止/找/女/人Line:jkqw新/北/外/約Wechat:tw5880台/中/鐘/點//情/人/外/送/
汐/止/找/女/人Line:jkqw新/北/外/約Wechat:tw5880台/中/鐘/點//情/人/外/送/
汐/止/找/女/人Line:jkqw新/北/外/約Wechat:tw5880台/中/鐘/點//情/人/外/送/

汐/止/找/女/人Line:jkqw新/北/外/約Wechat:tw5880台/中/鐘/點//情/人/外/送/
汐/止/找/女/人Line:jkqw新/北/外/約Wechat:tw5880台/中/鐘/點//情/人/外/送/
汐/止/找/女/人Line:jkqw新/北/外/約Wechat:tw5880台/中/鐘/點//情/人/外/送/

汐/止/找/女/人Line:jkqw新/北/外/約Wechat:tw5880台/中/鐘/點//情/人/外/送/
汐/止/找/女/人Line:jkqw新/北/外/約Wechat:tw5880台/中/鐘/點//情/人/外/送/
汐/止/找/女/人Line:jkqw新/北/外/約Wechat:tw5880台/中/鐘/點//情/人/外/送/

汐/止/找/女/人Line:jkqw新/北/外/約Wechat:tw5880台/中/鐘/點//情/人/外/送/
汐/止/找/女/人Line:jkqw新/北/外/約Wechat:tw5880台/中/鐘/點//情/人/外/送/
汐/止/找/女/人Line:jkqw新/北/外/約Wechat:tw5880台/中/鐘/點//情/人/外/送/

汐/止/找/女/人Line:jkqw新/北/外/約Wechat:tw5880台/中/鐘/點//情/人/外/送/
汐/止/找/女/人Line:jkqw新/北/外/約Wechat:tw5880台/中/鐘/點//情/人/外/送/
汐/止/找/女/人Line:jkqw新/北/外/約Wechat:tw5880台/中/鐘/點//情/人/外/送/

汐/止/找/女/人Line:jkqw新/北/外/約Wechat:tw5880台/中/鐘/點//情/人/外/送/
汐/止/找/女/人Line:jkqw新/北/外/約Wechat:tw5880台/中/鐘/點//情/人/外/送/
汐/止/找/女/人Line:jkqw新/北/外/約Wechat:tw5880台/中/鐘/點//情/人/外/送/

汐/止/找/女/人Line:jkqw新/北/外/約Wechat:tw5880台/中/鐘/點//情/人/外/送/
汐/止/找/女/人Line:jkqw新/北/外/約Wechat:tw5880台/中/鐘/點//情/人/外/送/
汐/止/找/女/人Line:jkqw新/北/外/約Wechat:tw5880台/中/鐘/點//情/人/外/送/

汐/止/找/女/人Line:jkqw新/北/外/約Wechat:tw5880台/中/鐘/點//情/人/外/送/
汐/止/找/女/人Line:jkqw新/北/外/約Wechat:tw5880台/中/鐘/點//情/人/外/送/
汐/止/找/女/人Line:jkqw新/北/外/約Wechat:tw5880台/中/鐘/點//情/人/外/送/

汐/止/找/女/人Line:jkqw新/北/外/約Wechat:tw5880台/中/鐘/點//情/人/外/送/
汐/止/找/女/人Line:jkqw新/北/外/約Wechat:tw5880台/中/鐘/點//情/人/外/送/
汐/止/找/女/人Line:jkqw新/北/外/約Wechat:tw5880台/中/鐘/點//情/人/外/送/

汐/止/找/女/人Line:jkqw新/北/外/約Wechat:tw5880台/中/鐘/點//情/人/外/送/
汐/止/找/女/人Line:jkqw新/北/外/約Wechat:tw5880台/中/鐘/點//情/人/外/送/
汐/止/找/女/人Line:jkqw新/北/外/約Wechat:tw5880台/中/鐘/點//情/人/外/送/

汐/止/找/女/人Line:jkqw新/北/外/約Wechat:tw5880台/中/鐘/點//情/人/外/送/
汐/止/找/女/人Line:jkqw新/北/外/約Wechat:tw5880台/中/鐘/點//情/人/外/送/
汐/止/找/女/人Line:jkqw新/北/外/約Wechat:tw5880台/中/鐘/點//情/人/外/送/
 

回覆 使用道具 檢舉

你需要登入後才可以回覆 登入 | 註冊

存檔|手機版|聯絡我們|新聞提供|鐵之狂傲

GMT+8, 19-11-18 13:49 , Processed in 0.535877 second(s), 18 queries .

回頂部