鐵之狂傲

 取回密碼
 註冊
搜尋

發表於 20-10-26 10:01:52 |顯示全部樓層 大字 中字 小字 正體化 简体化
本文章最後由 無我皇 於 20-10-27 19:53 編輯

研究的播放程式有千千靜聽和 VLC Player 還有 KMPlayer 和手機 VLC Player ,
VLC Player 和千千靜聽的結果有一些不一樣,千千靜聽用的檔案多ttp這幾個字
小皇已經寫好最基本的範本,千千靜聽沒有第一行則第一首歌會變成第二首,
VLC Player 若開頭有專輯資訊那換歌時可能不會切換每一首歌所設的封面
檔案分站內下載和站外下載,2020/10/26/1 已經更新到
5種無損音樂和mp3音樂製作工具程式大全
http://www.gamez.com.tw/thread-565406-1-1.html

cue檔可以
1卦載鏡像做燒錄用等
2卦載光碟合輯音樂檔做切曲分割
3匯集卦載多個音樂檔做播放清單
4雜湊原音鏡像另存成光碟鏡像來獲得cue檔或做合輯
5有時做微調用,用 CUE Splitter 來擷取片段做手機鈴聲

檔案下載 Download兩個版本有些不一樣
站內下載 TwinBee-WIN7.rar (61.45 KB, 下載次數: 0)
TwinBee.rar (76.31 KB, 下載次數: 0)
更新日期2020年10月26日曜日 (日月火水木金土) File Size: 76.31KB
站外下載
上傳日期2020年10月26日曜日 (日月火水木金土) File Size: 76.31KB

TwinBee.tar.gz
https://www.sendspace.com/file/lmc53u

TwinBee-WIN7.rar
https://www.sendspace.com/file/s8ba1h
Download 按鈕要點第二次才會下載

202010261win7netcoffee2.png


202010261win7netcoffee.jpg


WMA檔
TITLE "藤崎詩織gF-S-095"
FILE "S-095 Track No01.wma" WMA
  TRACK 01 AUDIO
    INDEX 01 00:00:00
FILE "S-095 Track No02.wma" WMA
  TRACK 02 AUDIO
    INDEX 01 00:00:00
FILE "S-095 Track No03.wma" WMA
  TRACK 03 AUDIO
    INDEX 01 00:00:00

例子2
TITLE "空海-冥想音相-曼陀羅Mandala"
FILE "Mandala Track No01.wma" WMA
  TRACK 01 AUDIO
    INDEX 01 00:00:00
FILE "Mandala Track No02.wma" WMA
  TRACK 02 AUDIO
    INDEX 01 00:00:00

千千靜聽用加上TITLE "空海-冥想音相-曼陀羅Mandala"這行
VLC Player用這行可以省





MP3檔

TITLE "偶像防衛隊 蜂鳥合唱團"
FILE "GGG-065.mp3" MP3
  TRACK 01 AUDIO
    INDEX 01 00:00:00
  TRACK 02 AUDIO
    INDEX 01 04:37:50
  TRACK 03 AUDIO
    INDEX 01 09:03:15
  TRACK 04 AUDIO
    INDEX 01 14:19:52
  TRACK 05 AUDIO
    INDEX 01 19:09:30
  TRACK 06 AUDIO
    INDEX 01 24:02:62
  TRACK 07 AUDIO
    INDEX 01 29:05:07
  TRACK 08 AUDIO
    INDEX 01 32:49:62
  TRACK 09 AUDIO
    INDEX 01 37:30:52
  TRACK 10 AUDIO
    INDEX 01 41:45:52
  TRACK 11 AUDIO
    INDEX 01 49:27:45
  TRACK 12 AUDIO
    INDEX 01 54:06:32

例子2

FILE "tatebayasimiharu-s-19 track 01.mp3" MP3
  TRACK 01 AUDIO
    INDEX 01 00:00:00
FILE "tatebayasimiharu-s-19 track 02.mp3" MP3
  TRACK 02 AUDIO
    INDEX 01 00:00:00
FILE "tatebayasimiharu-s-19 track 03.mp3" MP3
  TRACK 03 AUDIO
    INDEX 01 00:00:00
FILE "tatebayasimiharu-s-19 track 04.mp3" MP3
  TRACK 04 AUDIO
    INDEX 01 00:00:00
FILE "tatebayasimiharu-s-19 track 05.mp3" MP3
  TRACK 05 AUDIO
    INDEX 01 00:00:00
FILE "tatebayasimiharu-s-19 track 06.mp3" MP3
  TRACK 06 AUDIO
    INDEX 01 00:00:00
FILE "tatebayasimiharu-s-19 track 07.mp3" MP3
  TRACK 07 AUDIO
    INDEX 01 00:00:00


例子3 - 千千靜聽可以用

FILE "下級生Melody-GGG-062.mp3" MP3
  TRACK 01 AUDIO
    INDEX 01 00:00:00
  TRACK 02 AUDIO
    INDEX 01 02:49:47
  TRACK 03 AUDIO
    INDEX 01 07:24:02
  TRACK 04 AUDIO
    INDEX 01 11:07:02
  TRACK 05 AUDIO
    INDEX 01 16:39:42
  TRACK 06 AUDIO
    INDEX 01 21:00:47
  TRACK 07 AUDIO
    INDEX 01 27:10:62
  TRACK 08 AUDIO
    INDEX 01 30:53:20
  TRACK 09 AUDIO
    INDEX 01 35:56:25
  TRACK 10 AUDIO
    INDEX 01 39:27:30

例子4 - 電腦版 VLC Player 可用 , 手機版 VLC Player 失敗

FILE "GS-160-mp3.mp3" WAVE
  TRACK 01 AUDIO
    INDEX 01 00:00:00
  TRACK 02 AUDIO
    INDEX 01 03:41:65
  TRACK 03 AUDIO
    INDEX 01 07:30:18
  TRACK 04 AUDIO
    INDEX 01 11:43:18
  TRACK 05 AUDIO
    INDEX 01 16:16:09
  TRACK 06 AUDIO
    INDEX 01 21:01:34
  TRACK 07 AUDIO
    INDEX 01 26:50:02



tak檔

這個是別人寫的現成的

REM GENRE Anime
REM DATE 1998
PERFORMER "榎本温子・鈴木千尋"
TITLE "夢の中へ"
FILE "榎本温子 鈴木千尋 - 夢の中へ.tak" WAVE
  TRACK 01 AUDIO
    TITLE "夢の中へ"
    INDEX 01 00:00:00
  TRACK 02 AUDIO
    TITLE "S・O・S"
    INDEX 00 02:37:71
    INDEX 01 02:39:05
  TRACK 03 AUDIO
    TITLE "夢の中へ(カラオケ)"
    INDEX 00 05:20:46
    INDEX 01 05:22:45
  TRACK 04 AUDIO
    TITLE "S・O・S(カラオケ)"
    INDEX 00 08:00:47
    INDEX 01 08:01:50

例子2

PERFORMER "岡崎律子"
TITLE "Rain or Shine"
FILE "Rain or Shine.tak" WAVE
TRACK 01 AUDIO
TITLE "BLUE POINT"
PERFORMER "岡崎律子"
INDEX 01 00:00:00
TRACK 02 AUDIO
TITLE "朝~What's goin' on~"
PERFORMER "岡崎律子"
INDEX 00 03:53:57
INDEX 01 03:54:35
TRACK 03 AUDIO
TITLE "長距離電話"
PERFORMER "岡崎律子"
INDEX 00 07:49:10
INDEX 01 07:50:25
TRACK 04 AUDIO
TITLE "Rain or Shine~降っても晴れても~"
PERFORMER "岡崎律子"
INDEX 00 13:02:40
INDEX 01 13:03:22
TRACK 05 AUDIO
TITLE "春の海へ"
PERFORMER "岡崎律子"
INDEX 00 16:39:32
INDEX 01 16:40:00
TRACK 06 AUDIO
TITLE "まっすぐな心で"
PERFORMER "岡崎律子"
INDEX 00 19:33:02
INDEX 01 19:34:00




flac檔

這個小皇寫的,這樣也可以用


PERFORMER "岡崎律子"
TITLE "交響樂之雨"

FILE "01. 薺赽 - 空の向こうに.flac" WAVE
TRACK 01 AUDIO
TITLE "空の向こうに"
PERFORMER "岡崎律子"
INDEX 01 00:00:00

FILE "02. 薺赽 - I'm always close to you.flac" WAVE
TRACK 02 AUDIO
TITLE "I'm always close to you"
PERFORMER "岡崎律子"
INDEX 01 00:00:00

FILE "03. 薺赽 - 秘密.flac" WAVE
TRACK 03 AUDIO
TITLE "秘密"
PERFORMER "岡崎律子"
INDEX 01 00:00:00

FILE "04. 薺赽 - いつでも微笑みを.flac" WAVE
TRACK 04 AUDIO
TITLE "いつでも微笑みを"
PERFORMER "岡崎律子"
INDEX 01 00:00:00

FILE "05. 薺赽 - 雨のmusique.flac" WAVE
TRACK 05 AUDIO
TITLE "雨のmusique"
PERFORMER "岡崎律子"
INDEX 01 00:00:00

FILE "06. 薺赽 - メロディー.flac" WAVE
TRACK 06 AUDIO
TITLE "メロディー"
PERFORMER "岡崎律子"
INDEX 01 00:00:00


例子2

這個是別人寫的現成的

CATALOG 4988002412075
PERFORMER "Various"
TITLE "カードキャプターさくら COMPLETE VOCAL COLLECTION DISC-4 [キャラクター編]"
FILE "VICL-60684.flac" WAVE
  TRACK 01 AUDIO
    TITLE "ヒトリジメ"
    PERFORMER "グミ"
    ISRC JPVI09806050
    INDEX 01 00:00:00
  TRACK 02 AUDIO
    TITLE "気になるアイツ"
    PERFORMER "くまいもとこ(李子狼)"
    ISRC JPVI09811480
    INDEX 00 04:21:16
    INDEX 01 04:22:50
  TRACK 03 AUDIO
    TITLE "君がいた景色"
    PERFORMER "関智一(木之本桃矢)"
    ISRC JPVI09809920
    INDEX 00 09:05:26
    INDEX 01 09:07:60
  TRACK 04 AUDIO
    TITLE "いっしょにうたお"
    PERFORMER "久川綾(ケルベロス)"
    ISRC JPVI09809950
    INDEX 00 13:50:51
    INDEX 01 13:52:10


ape檔

這個是別人寫的現成的

REM GENRE Anime
REM DATE 1999
REM DISCID 900ACB0A
REM COMMENT "ExactAudioCopy v0.95b3"
PERFORMER "Various"
TITLE "カードキャプターさくら キャラクターソングブック"
FILE "カードキャプターさくら キャラクターソングブック.ape" WAVE
  TRACK 01 AUDIO
    TITLE "ずっとずっとずっと"
    PERFORMER "木之本櫻(丹下櫻)&ケルベロス(久川綾)"
    INDEX 00 00:00:00
    INDEX 01 00:00:37
  TRACK 02 AUDIO
    TITLE "こっちを向いて"
    PERFORMER "李苺鈴(野上ゆかな)"
    INDEX 00 04:36:11
    INDEX 01 04:37:45
  TRACK 03 AUDIO
    TITLE "自轉車に乘って"
    PERFORMER "月城雪兔(緒方惠美)"
    INDEX 00 09:07:01
    INDEX 01 09:08:35
  TRACK 04 AUDIO
    TITLE "君がいた景色"
    PERFORMER "木之本桃矢(關智一)"
    INDEX 00 13:27:31
    INDEX 01 13:27:65


例子2

這個是別人寫的現成的

TITLE "clover/meg rock"
CATALOG 4562183180345
FILE "solty_op.ape" WAVE
  TRACK 01 AUDIO
    PERFORMER "meg rock"
    TITLE "clover"
    ISRC JPA450500368
    INDEX 01 00:00:00
  TRACK 02 AUDIO
    PERFORMER "meg rock"
    TITLE "wish"
    ISRC JPA450500369
    INDEX 00 04:24:29
    INDEX 01 04:26:40
  TRACK 03 AUDIO
    PERFORMER " "
    TITLE "clover / it's-your-turn-mix"
    ISRC JPA450500370
    INDEX 00 09:12:55
    INDEX 01 09:16:10
  TRACK 04 AUDIO
    PERFORMER " "
    TITLE "wish / it's-your-turn-mix"
    ISRC JPA450500371
    INDEX 00 13:40:34
    INDEX 01 13:42:53



tta檔

這個是別人寫的現成的

REM GENRE Anime/Game
REM DATE 2009
REM DISCID 2E04B604
REM COMMENT "ExactAudioCopy v0.99pb4"
PERFORMER "eufonius"
TITLE "phosphorus「神曲奏界ポリフォニカ クリムゾンS OP」"
FILE "eufonius - phosphorus.tta" WAVE
  TRACK 01 AUDIO
    TITLE "phosphorus"
    PERFORMER "eufonius"
    INDEX 01 00:00:00
  TRACK 02 AUDIO
    TITLE "優しい旋律"
    PERFORMER "eufonius"
    INDEX 00 04:27:09
    INDEX 01 04:30:09
  TRACK 03 AUDIO
    TITLE "phosphorus (inst.)"
    PERFORMER "eufonius"
    INDEX 00 10:01:66
    INDEX 01 10:04:66
  TRACK 04 AUDIO
    TITLE "優しい旋律 (inst.)"
    PERFORMER "eufonius"
    INDEX 00 14:31:47
    INDEX 01 14:34:47



鏡像檔

這個小皇寫的

FILE "201210221gFCDR1.2-WAV-Nero9-UIC.bin" BINARY
  TRACK 01 AUDIO
    INDEX 01 00:00:00
  TRACK 02 AUDIO
    INDEX 00 05:42:50
    INDEX 01 05:44:50
  TRACK 03 AUDIO
    INDEX 00 12:13:29
    INDEX 01 12:15:29
  TRACK 04 AUDIO
    INDEX 00 17:19:68
    INDEX 01 17:21:68
  TRACK 05 AUDIO
    INDEX 00 22:37:27
    INDEX 01 22:39:27
  TRACK 06 AUDIO
    INDEX 00 27:55:64
    INDEX 01 27:57:64
  TRACK 07 AUDIO
    INDEX 00 31:42:44
    INDEX 01 31:44:44




wav原音檔

這個小皇寫的

FILE "201210221gFCDR1.2-WAV-Nero9-UIC.bin" BINARY
  TRACK 01 AUDIO
    INDEX 01 00:00:00
  TRACK 02 AUDIO
    INDEX 00 05:42:50
    INDEX 01 05:44:50
  TRACK 03 AUDIO
    INDEX 00 12:13:29
    INDEX 01 12:15:29
  TRACK 04 AUDIO
    INDEX 00 17:19:68
    INDEX 01 17:21:68
  TRACK 05 AUDIO
    INDEX 00 22:37:27
    INDEX 01 22:39:27
  TRACK 06 AUDIO
    INDEX 00 27:55:64
    INDEX 01 27:57:64
  TRACK 07 AUDIO
    INDEX 00 31:42:44
    INDEX 01 31:44:44
  TRACK 08 AUDIO
    INDEX 00 36:47:69
    INDEX 01 36:49:69
  TRACK 09 AUDIO
    INDEX 00 42:16:14
    INDEX 01 42:18:14
  TRACK 10 AUDIO
    INDEX 00 46:55:11
    INDEX 01 46:57:11
  TRACK 11 AUDIO
    INDEX 00 50:55:01
    INDEX 01 50:57:01
  TRACK 12 AUDIO
    INDEX 00 56:17:69
    INDEX 01 56:19:69



雜湊

REM GENRE Game
REM DISCID 2C046104
REM COMMENT ExactAudioCopy v0.95b1
FILE "Lapis Lazuli.bin" BINARY
  TRACK 01 AUDIO
    INDEX 01 00:00:00
  TRACK 02 AUDIO
    INDEX 01 04:49:60
  TRACK 03 AUDIO
    INDEX 01 09:21:56
  TRACK 04 AUDIO
    INDEX 01 14:11:01
FILE "KIDA-173.wav" WAVE
  TRACK 05 AUDIO
    INDEX 01 00:00:00
  TRACK 06 AUDIO
    INDEX 01 02:39:05
  TRACK 07 AUDIO
    INDEX 01 05:22:45
  TRACK 08 AUDIO
    INDEX 01 08:01:50
FILE "Furutubaskt.wav" WAVE
  TRACK 09 AUDIO
    INDEX 01 00:00:00
  TRACK 10 AUDIO
    INDEX 01 04:24:07



cue檔取得技巧


可用原音鏡像用CDmage掛載另存成cue檔就可以得到基本的cue檔
也有鏡像檔造假的cue檔,這時就必須自己修正,方法是聽歌寫上正確的時間


回覆 使用道具 檢舉

全世界最先進的跳動筆
肖像被遮蔽
  • 禁止發言

    提示: 作者被封鎖或刪除 內容自動遮蔽
     
    簽名被遮蔽

    回覆 使用道具 檢舉

    肖像被遮蔽
  • 禁止發言

    提示: 作者被封鎖或刪除 內容自動遮蔽
     

    回覆 使用道具 檢舉

    你需要登入後才可以回覆 登入 | 註冊

    存檔|手機版|聯絡我們|新聞提供|鐵之狂傲

    GMT+8, 20-12-1 04:10 , Processed in 2.978101 second(s), 18 queries .

    回頂部